GaanBD24.pw | 7starhd,khatrimaza,downloadhub,9xmovies,khatrimaza,bdmusic23,bdmusic23.com,bdmusic23.pro,bdmusic23.info,bdmusic23.mobi,bdmusic,bd music

Sharma ji ki lag gayi (2019) Hindi Movie Pre-DVDRip x264

Bollywood Movies

IMDB: /10 votes

Report error

Sharma ji ki lag gayi (2019) Hindi Movie Pre-DVDRip x264

IMDB Link

General
Complete name : Sharma ji ki lag gayi (2019) Hindi Movie Pre-DVDRip x264
Format : MPEG-4
Format profile : Base Media
Codec ID : isom (isom/iso2/mp41)
File size : 1 010 MiB
Duration : 2 h 42 min
Overall bit rate : 870 kb/s
Writing application : Lavf57.71.100

Video
Format : HEVC
Format/Info : High Efficiency Video Coding
Format profile : [email protected]@Main
Codec ID : hev1
Codec ID/Info : High Efficiency Video Coding
Duration : 2 h 42 min
Bit rate : 664 kb/s
Width : 800 pixels
Height : 520 pixels
Display aspect ratio : 3:2
Frame rate : 60.000 FPS
Color space : YUV
Chroma subsampling : 4:2:0
Bit depth : 8 bits
Bits/(Pixel*Frame) : 0.027
Stream size : 771 MiB (76%)

Audio
Format : AAC
Format/Info : Advanced Audio Codec
Format profile : LC
Codec ID : 40
Duration : 2 h 42 min
Bit rate mode : Constant
Bit rate : 196 kb/s
Channel(s) : 2 channels
Channel positions : Front: L R
Sampling rate : 44.1 kHz
Frame rate : 43.066 FPS (1024 SPF)
Compression mode : Lossy
Stream size : 228 MiB (23%)
Default : Yes








TheFilesLocker Link

BDupload Link

Indishare Link

Clicknupload Link

DBupload Link

Letsupload Link

FilefLares Link

Mirrorace Link

No links available
No downloads available

Leave a Reply

Your email address will not be published. Required fields are marked *

Related movies