GaanBD24.pw | 7starhd,khatrimaza,downloadhub,9xmovies,khatrimaza,bdmusic23,bdmusic23.com,bdmusic23.pro,bdmusic23.info,bdmusic23.mobi,bdmusic,bd music

Independence Day Resurgence 2016 Hindi Dual Audio BluRay 720p

Hindi Dual Audio Movies

IMDB: /10 votes

Report error

Independence Day Resurgence 2016 Hindi Dual Audio BluRay 720p.mkv

IMDB Link

General
Complete name : Independence Day Resurgence 2016 Hindi Dual Audio BluRay.mp4
Format : MPEG-4
Format profile : Base Media / Version 2
Codec ID : mp42 (mp42)
File size : 588 MiB
Duration : 2 h 23 min
Overall bit rate mode : Constant
Overall bit rate : 575 kb/s
Codirector : codirector
Production studio : studio

Video
Format : MPEG-4 Visual
Format settings, BVOP : Yes
Format settings, QPel : No
Format settings, GMC : No warppoints
Format settings, Matrix : Default (H.263)
Codec ID : 20
Duration : 2 h 23 min
Bit rate mode : Constant
Bit rate : 384 kb/s
Width : 400 pixels
Height : 250 pixels
Display aspect ratio : 16:10
Frame rate mode : Constant
Frame rate : 29.970 (30000/1001) FPS
Color space : YUV
Bit depth : 8 bits
Scan type : Progressive
Compression mode : Lossy
Bits/(Pixel*Frame) : 0.128
Stream size : 393 MiB (67%)

Audio
Format : AAC
Format/Info : Advanced Audio Codec
Format profile : LC
Codec ID : 40
Duration : 2 h 23 min
Bit rate mode : Constant
Bit rate : 186 kb/s
Channel(s) : 2 channels
Channel positions : Front: L R
Sampling rate : 44.1 kHz
Frame rate : 43.066 FPS (1024 SPF)
Compression mode : Lossy
Stream size : 190 MiB (32%)
Title : Stereo
Language : English
Default : Yes








indishare Link

TheFilesLocker Link

MegaUp Link

OpenLoad Link

UserscLoud Link

ClicknupLoad Link

BDupload Link

UpPom Link

UploadBuzz Link

No links available
No downloads available

Leave a Reply

Your email address will not be published. Required fields are marked *

Related movies