GaanBD24.pw | 7starhd,khatrimaza,downloadhub,9xmovies,khatrimaza,bdmusic23,bdmusic23.com,bdmusic23.pro,bdmusic23.info,bdmusic23.mobi,bdmusic,bd music

Anta Fazila Hindi HOT Movie 720p

Hindi Movie Zone

IMDB: /10 votes

Report error

Anta Fazila Hindi HOT Movie 720p.mkv

IMDB Link

General
Complete name : Anta Fazila Hindi HOT Movie.mp4
Format : MPEG-4
Format profile : Base Media
Codec ID : isom (isom/iso2/avc1/mp42)
File size : 726 MiB
Duration : 2 h 25 min
Overall bit rate mode : Variable
Overall bit rate : 697 kb/s
Writing application : Lavf55.33.100

Video
Format : AVC
Format/Info : Advanced Video Codec
Format profile : [email protected]
Format settings, CABAC : Yes
Format settings, RefFrames : 4 frames
Codec ID : avc1
Codec ID/Info : Advanced Video Coding
Duration : 2 h 25 min
Bit rate : 512 kb/s
Width : 640 pixels
Height : 384 pixels
Display aspect ratio : 5:3
Frame rate mode : Variable
Frame rate : 29.970 (29970/1000) FPS
Minimum frame rate : 29.940 FPS
Maximum frame rate : 29.970 FPS
Color space : YUV
Chroma subsampling : 4:2:0
Bit depth : 8 bits
Scan type : Progressive
Bits/(Pixel*Frame) : 0.070
Stream size : 534 MiB (73%)

Audio
Format : AAC
Format/Info : Advanced Audio Codec
Format profile : LC
Codec ID : 40
Duration : 2 h 25 min
Bit rate mode : Variable
Bit rate : 177 kb/s
Maximum bit rate : 192 kb/s
Channel(s) : 2 channels
Channel positions : Front: L R
Sampling rate : 44.1 kHz
Frame rate : 43.066 FPS (1024 SPF)
Compression mode : Lossy
Stream size : 184 MiB (25%)
Default : Yes
Alternate group : 1








indishare Link

TheFilesLocker Link

MegaUp Link

openload Link

UserscLoud Link

ClicknupLoad Link

BDupload Link

UpPom Link

UploadBuzz Link

No links available
No downloads available

Leave a Reply

Your email address will not be published. Required fields are marked *

Related movies